الفلم الهندي (( Blackmail )) درامندرا +شاترجهان سنها

استعرض الموضوع السابق استعرض الموضوع التالي اذهب الى الأسفل

الفلم الهندي (( Blackmail )) درامندرا +شاترجهان سنها

مُساهمة  abram في الخميس مارس 26, 2009 11:38 am

الفلم الهندي
(( Blackmail ))
درامندرا +شاترجهان سنها







General
Format : AVI
Format/Info : Audio Video Interleave
File size : 1.36 GiB
Duration : 2h 25mn
Overal bit rate : 1341 Kbps
Writing application : VirtualDubMod 1.5.10.2 (build 2540/release)
Writing library : VirtualDubMod build 2540/release

Video
Format : MPEG-4 Visual
Format profile : Streaming Video@L1
Format settings, BVOP : Yes
Format settings, QPel : No
Format settings, GMC : No warpoints
Format settings, Matrix : Default
Muxing mode : Packet Bitstream
Codec ID : XVID
Codec ID/Hint : XviD
Duration : 2h 25mn
Bit rate : 1105 Kbps
Width : 640 pixels
Height : 480 pixels
Display aspect ratio : 4/3
Frame rate : 29.970 fps
Resolution : 8 bits
Colorimetry : 4:2:0
Scan type : Progressive
Bits/(Pixel*Frame) : 0.120
Stream size : 1.12 GiB
Writing library : XviD 1.1.2 (UTC 2006-11-01)

Audio
Format : AC-3
Format/Info : Audio Coding 3
Codec ID : 2000
Duration : 2h 25mn
Bit rate mode : Constant
Bit rate : 224 Kbps
Channel(s) : 2 channels
Channel positions : L R
Sampling rate : 48.0 KHz
Stream size : 233 MiB









Credits to the original ripper..




Links:-



Code:
rapidshare.com BlackMail.1973.2CD.DVDRiP.XviD.AC3.by.IndianHacker.avi.001
rapidshare.com BlackMail.1973.2CD.DVDRiP.XviD.AC3.by.IndianHacker.avi.002
rapidshare.com BlackMail.1973.2CD.DVDRiP.XviD.AC3.by.IndianHacker.avi.003
rapidshare.com BlackMail.1973.2CD.DVDRiP.XviD.AC3.by.IndianHacker.avi.004
rapidshare.com BlackMail.1973.2CD.DVDRiP.XviD.AC3.by.IndianHacker.avi.005
rapidshare.com BlackMail.1973.2CD.DVDRiP.XviD.AC3.by.IndianHacker.avi.006
rapidshare.com BlackMail.1973.2CD.DVDRiP.XviD.AC3.by.IndianHacker.avi.007
rapidshare.com BlackMail.1973.2CD.DVDRiP.XviD.AC3.by.IndianHacker.avi.008
rapidshare.com BlackMail.1973.2CD.DVDRiP.XviD.AC3.by.IndianHacker.avi.009
rapidshare.com BlackMail.1973.2CD.DVDRiP.XviD.AC3.by.IndianHacker.avi.010
rapidshare.com BlackMail.1973.2CD.DVDRiP.XviD.AC3.by.IndianHacker.avi.011
rapidshare.com BlackMail.1973.2CD.DVDRiP.XviD.AC3.by.IndianHacker.avi.012
rapidshare.com BlackMail.1973.2CD.DVDRiP.XviD.AC3.by.IndianHacker.avi.013
rapidshare.com BlackMail.1973.2CD.DVDRiP.XviD.AC3.by.IndianHacker.avi.014
avatar
abram
المدير العام
المدير العام

المساهمات : 53
تاريخ التسجيل : 23/01/2009
العمر : 32

معاينة صفحة البيانات الشخصي للعضو http://abram.own0.com

الرجوع الى أعلى الصفحة اذهب الى الأسفل

استعرض الموضوع السابق استعرض الموضوع التالي الرجوع الى أعلى الصفحة


 
صلاحيات هذا المنتدى:
لاتستطيع الرد على المواضيع في هذا المنتدى